<?xml version="1.0" standalone="no"?>
<!DOCTYPE svg PUBLIC "-//W3C//DTD SVG 1.1//EN" "http://www.w3.org/Graphics/SVG/1.1/DTD/svg11.dtd" >
<svg>
<metadata>
Created by FontForge 20090914 at Sat Apr 30 17:54:40 2011
 By www-data
Copyright (c) 1999-2007 by Ruben Tarumian. All rights reserved.
</metadata>
<defs>
<font id="ArianAMU-Bold" horiz-adv-x="1224" >
  <font-face 
    font-family="Arian AMU"
    font-weight="700"
    font-stretch="normal"
    units-per-em="2048"
    panose-1="1 0 0 0 0 0 0 0 0 0"
    ascent="1638"
    descent="-410"
    x-height="22"
    bbox="-134 -1667 1982 407.481"
    underline-thickness="150"
    underline-position="-142"
    unicode-range="U+0020-U+007E"
  />
    <missing-glyph />
    <glyph glyph-name="exclam" unicode="!" horiz-adv-x="595" 
d="M192 -391l-52 -710v-365h315v365l-50 710h-213zM167 0v-259h260v259h-260z" />
    <glyph glyph-name="quotedbl" unicode="&#x22;" horiz-adv-x="844" 
d="M192 -913l-52 -295v-258h259v256l-47 297h-160zM495 -913l-50 -295v-258h259v258l-50 295h-159z" />
    <glyph glyph-name="numbersign" unicode="#" horiz-adv-x="1391" 
d="M208 23l80 -399h-148v-207h187l55 -272h-242v-207h283l81 -403h249l-81 403h178l80 -403h250l-81 403h152v207h-191l-55 272h246v207h-287l-82 399h-248l80 -399h-178l-79 399h-249zM577 -583h178l54 -272h-177z" />
    <glyph glyph-name="dollar" unicode="$" horiz-adv-x="1200" 
d="M708 -846c216 61 392 162 392 422c0 194 -99 325 -230 398c-48 27 -102 43 -162 50v174h-207v-176c-252 -41 -402 -172 -401 -461l270 -52c20 132 43 234 131 291v-460c-163 -45 -288 -135 -348 -278c-17 -42 -25 -86 -25 -131c4 -254 150 -371 373 -411v-87h207v87
c220 39 328 168 364 392l-280 42c-15 -105 -43 -172 -84 -202v402zM501 -1258c-104 37 -132 249 -39 323c12 10 25 19 39 27v-350zM708 -201c111 -40 161 -286 49 -368c-14 -10 -30 -20 -49 -29v397z" />
    <glyph glyph-name="percent" unicode="%" horiz-adv-x="1722" 
d="M457 -671c-237 0 -339 -167 -339 -406c0 -174 72 -299 193 -357c42 -20 90 -30 145 -30c236 0 347 161 347 397c0 180 -72 308 -197 366c-43 20 -93 30 -149 30zM521 -1232c-18 -44 -81 -67 -111 -20c-48 75 -46 275 -11 350c30 65 98 60 123 2c34 -78 32 -253 -1 -332z
M397 0l760 -1466h248l-757 1466h-251zM1327 51c-238 0 -340 -167 -340 -407c0 -229 109 -387 339 -387c236 0 348 161 348 397c0 181 -73 308 -198 367c-43 20 -93 30 -149 30zM1242 -339c0 85 7 197 87 206c108 -16 98 -200 83 -313c-7 -57 -27 -106 -82 -113
c-85 9 -88 132 -88 220z" />
    <glyph glyph-name="ampersand" unicode="&#x26;" horiz-adv-x="1353" 
d="M371 -853c-67 -83 -123 -155 -123 -298c0 -165 110 -262 236 -313c146 -59 338 -10 418 70c55 55 104 129 104 230c0 191 -116 297 -257 363l172 215c15 -43 25 -88 35 -139l279 60c-33 126 -65 227 -123 318c53 73 121 141 201 175l-102 219
c-118 -25 -205 -95 -270 -172c-95 88 -208 148 -380 148c-219 0 -368 -111 -443 -263c-62 -125 -40 -306 28 -404c58 -83 131 -149 225 -209zM727 -1159c2 -67 -37 -126 -97 -126c-124 0 -112 178 -59 257c12 19 25 40 42 60c67 -34 111 -96 114 -191zM505 -678
c-93 64 -168 192 -121 339c29 90 115 175 236 136c69 -22 125 -70 165 -125z" />
    <glyph glyph-name="quotesingle" unicode="'" horiz-adv-x="578" 
d="M189 -913l-49 -290v-263h298v263l-49 290h-200z" />
    <glyph glyph-name="parenleft" unicode="(" horiz-adv-x="706" 
d="M367 407c-213 -288 -388 -619 -338 -1119c33 -324 183 -533 323 -754h246c-206 331 -334 754 -245 1270c41 238 151 419 253 603h-239z" />
    <glyph glyph-name="parenright" unicode=")" horiz-adv-x="706" 
d="M380 -532c0 -406 -116 -655 -272 -934h246l104 163c130 211 232 430 228 771c-5 420 -160 678 -347 939h-239l92 -167c115 -214 188 -441 188 -772z" />
    <glyph glyph-name="asterisk" unicode="*" horiz-adv-x="942" 
d="M80 -1143l68 -209l215 91l-17 -226h249l-17 226l218 -88l66 210l-235 55l163 183l-197 139l-121 -189l-112 191l-197 -139l156 -185z" />
    <glyph glyph-name="plus" unicode="+" horiz-adv-x="1110" 
d="M469 -222v-376h-366v-225h366v-374h268v374h366v225h-366v376h-268z" />
    <glyph glyph-name="comma" unicode="," horiz-adv-x="601" 
d="M162 0v-259h299c-3 159 18 336 -61 427c-45 53 -103 89 -172 122l-88 -135c68 -31 108 -67 115 -155h-93z" />
    <glyph glyph-name="hyphen" unicode="-" horiz-adv-x="780" 
d="M100 -412v-237h580v237h-580z" />
    <glyph glyph-name="period" unicode="." horiz-adv-x="498" 
d="M60 0v-259h298v259h-298z" />
    <glyph glyph-name="slash" unicode="/" horiz-adv-x="692" 
d="M20 23l408 -1489h244l-407 1489h-245z" />
    <glyph glyph-name="zero" unicode="0" 
d="M613 23c-425 0 -533 -337 -533 -761c0 -421 111 -752 533 -752s537 332 537 752c0 422 -113 761 -537 761zM367 -738c0 217 16 434 151 519c51 32 141 32 192 0c160 -101 163 -384 150 -640c-10 -201 -41 -412 -247 -412c-240 0 -246 285 -246 533z" />
    <glyph glyph-name="one" unicode="1" 
d="M886 0h-276v-1241h-239v-225h515v1466z" />
    <glyph glyph-name="two" unicode="2" 
d="M170 -1347c99 -92 213 -144 394 -144c245 0 408 122 477 301c120 313 -79 585 -241 753c-73 75 -158 147 -242 205v3h527v229h-933v-206c203 -128 401 -295 535 -494c56 -84 110 -179 110 -300c0 -156 -85 -263 -236 -263c-99 0 -167 43 -229 87z" />
    <glyph glyph-name="three" unicode="3" 
d="M886 -878c125 75 236 187 236 386c0 250 -158 400 -344 476c-143 59 -316 47 -454 -10c-77 -32 -143 -80 -197 -145l201 -175c53 73 135 144 243 144c166 0 264 -113 264 -288c0 -193 -129 -283 -342 -267v-210h88c96 -4 151 -61 151 -159c0 -96 -64 -146 -161 -146
c-89 0 -133 48 -176 113l-234 -131c88 -127 220 -201 427 -201c190 0 327 87 396 215c23 44 35 92 35 145c-2 124 -61 198 -133 253z" />
    <glyph glyph-name="four" unicode="4" 
d="M91 -521c189 -348 421 -670 688 -945h220v915h143v222h-143v329h-277v-329h-631v-192zM722 -551v-500c-128 144 -229 325 -328 500h328z" />
    <glyph glyph-name="five" unicode="5" 
d="M430 -938c183 -70 439 -16 547 82c87 79 154 191 152 354c-3 261 -138 416 -334 488c-143 53 -346 48 -473 -14c-92 -44 -168 -111 -222 -204l229 -149c57 100 111 179 254 179c166 0 256 -113 256 -285c0 -162 -76 -276 -235 -276c-99 0 -159 52 -211 113h-248v-816h903
v231h-618v297z" />
    <glyph glyph-name="six" unicode="6" 
d="M402 -849c69 -66 163 -104 294 -103c238 2 398 108 472 278c52 118 49 280 -6 396c-95 200 -325 355 -621 287c-291 -67 -418 -324 -418 -693c0 -382 106 -652 363 -764c195 -85 478 -32 604 65l-121 200c-132 -84 -223 -121 -360 -66c-138 55 -190 210 -207 400z
M684 -741c-162 0 -248 108 -248 271c0 164 82 270 239 270c163 0 243 -111 243 -279c0 -154 -81 -262 -234 -262z" />
    <glyph glyph-name="seven" unicode="7" 
d="M1118 -1298c-236 381 -443 807 -536 1298h-306c109 -472 288 -889 530 -1237h-668v-229h980v168z" />
    <glyph glyph-name="eight" unicode="8" 
d="M944 -875c126 80 232 214 232 410c0 246 -149 385 -337 453c-131 47 -295 47 -425 0c-188 -68 -334 -207 -334 -453c0 -195 100 -328 224 -408c-69 -54 -129 -136 -129 -249c0 -191 123 -294 274 -344c173 -56 396 -10 495 76c70 62 128 145 128 268
c0 114 -59 190 -128 247zM625 -202c170 0 264 -100 264 -270c0 -132 -71 -221 -165 -262c-154 -67 -293 30 -336 149c-13 35 -21 72 -21 113c3 169 88 270 258 270zM625 -1272c-100 0 -163 56 -163 155s62 151 160 151c99 0 164 -52 164 -151s-63 -155 -161 -155z" />
    <glyph glyph-name="nine" unicode="9" 
d="M608 -1491c394 0 550 271 550 681c0 388 -108 666 -362 788c-191 92 -478 37 -605 -60l121 -200c133 84 227 124 360 62c135 -64 192 -233 206 -425c-69 70 -168 123 -293 123c-237 0 -398 -104 -472 -272c-51 -114 -50 -276 -1 -394c76 -184 241 -303 496 -303z
M597 -733c161 0 248 -102 248 -264c0 -164 -82 -270 -239 -270c-163 0 -243 111 -243 279c0 154 82 255 234 255z" />
    <glyph glyph-name="colon" unicode=":" horiz-adv-x="578" 
d="M140 -803v-259h298v259h-298zM140 0v-259h298v259h-298z" />
    <glyph glyph-name="semicolon" unicode=";" horiz-adv-x="601" 
d="M162 -803v-259h299v259h-299zM162 0v-259h299c-4 158 19 321 -55 416c-39 50 -97 96 -178 133l-88 -136c79 -36 105 -62 115 -154h-93z" />
    <glyph glyph-name="less" unicode="&#x3c;" horiz-adv-x="1122" 
d="M20 -617v-191l1002 -432v249l-666 279l666 282v250z" />
    <glyph glyph-name="equal" unicode="=" horiz-adv-x="1200" 
d="M1100 -807h-1000v-225h1000v225zM1100 -391h-1000v-224h1000v224z" />
    <glyph glyph-name="greater" unicode="&#x3e;" horiz-adv-x="1122" 
d="M1102 -617l-1002 437v-250l665 -282l-665 -279v-249l1002 432v191z" />
    <glyph glyph-name="question" unicode="?" horiz-adv-x="1179" 
d="M595 -1258c-146 0 -211 110 -214 263h-281c5 -225 128 -364 295 -433c184 -76 438 -16 547 80c93 82 174 235 121 397c-78 238 -352 285 -343 613h-269c-2 -249 103 -391 231 -507c66 -60 153 -158 101 -281c-30 -72 -91 -132 -188 -132zM442 0v-250h288v250h-288z" />
    <glyph glyph-name="at" unicode="@" horiz-adv-x="2024" 
d="M1982 -85c-157 297 -449 489 -883 489c-463 0 -775 -186 -919 -510c-116 -261 -71 -657 50 -870c160 -282 418 -490 849 -490c385 0 647 174 775 444c89 187 78 468 -14 640c-82 154 -195 290 -362 355c-124 49 -333 49 -380 -61c-90 79 -263 123 -397 56
c-171 -86 -269 -319 -210 -574c49 -214 167 -380 359 -452c139 -52 309 -18 392 67l14 -71h275l-165 790c-1 20 -7 47 7 52c117 -9 174 -98 225 -180c74 -118 124 -309 70 -479c-80 -250 -278 -402 -597 -402c-335 0 -526 174 -646 398c-95 177 -120 499 -35 703
c108 258 346 398 706 398c298 0 509 -125 642 -303h244zM1141 -472c49 -154 41 -404 -133 -404c-147 0 -218 133 -258 261c-49 159 -30 397 136 412c142 -17 214 -142 255 -269z" />
    <glyph glyph-name="A" unicode="A" horiz-adv-x="1391" 
d="M5 0c115 -563 308 -1014 541 -1466h294c65 125 126 247 181 365c159 339 286 688 365 1101h-301c-29 -142 -62 -297 -108 -423h-561c-45 134 -85 268 -113 423h-298zM906 -642l-100 -260c-16 -40 -34 -80 -52 -120s-38 -83 -60 -126c-84 166 -142 330 -209 506h421z" />
    <glyph glyph-name="B" unicode="B" horiz-adv-x="1330" 
d="M1050 -778c105 67 200 162 200 320c0 234 -139 364 -322 426c-66 21 -138 32 -217 32h-571v-1466h560c230 1 394 90 468 244c80 166 11 370 -118 444zM949 -449c0 -134 -90 -196 -226 -196h-199v-234h197c120 -1 188 -64 188 -183c0 -124 -110 -171 -249 -170h-226v998
h277c141 -4 238 -69 238 -215z" />
    <glyph glyph-name="C" unicode="C" horiz-adv-x="1546" 
d="M793 -203c226 -4 326 -141 372 -327h311c-59 232 -202 415 -414 504c-159 67 -384 67 -545 -4c-259 -112 -437 -348 -437 -713c0 -343 161 -573 404 -687c144 -67 369 -79 533 -28c218 68 352 227 422 446h-300c-63 -178 -262 -305 -487 -230c-187 62 -273 249 -273 498
c0 247 89 425 253 506c50 25 104 35 161 35z" />
    <glyph glyph-name="D" unicode="D" horiz-adv-x="1491" 
d="M140 0v-1466h573c361 3 587 169 689 433c66 173 66 410 1 585c-98 265 -309 448 -666 448h-597zM715 -234c301 -7 437 -200 437 -509c0 -226 -95 -380 -254 -453c-120 -55 -299 -30 -465 -36v998h282z" />
    <glyph glyph-name="E" unicode="E" horiz-adv-x="1374" 
d="M140 0v-1466h1102v233h-808v354h708v234h-708v411h840v234h-1134z" />
    <glyph glyph-name="F" unicode="F" horiz-adv-x="1216" 
d="M140 0v-1466h1036v233h-742v354h642v234h-642v645h-294z" />
    <glyph glyph-name="G" unicode="G" horiz-adv-x="1517" 
d="M590 -238c161 75 402 27 538 -42v-268h-471v-234h760v608c-229 163 -612 270 -935 144c-264 -103 -442 -335 -442 -696c0 -366 160 -603 424 -710c148 -61 365 -74 523 -19c212 73 343 240 427 443h-308c-43 -104 -130 -186 -236 -228c-35 -14 -71 -20 -107 -20
c-307 8 -422 226 -422 541c0 236 87 405 249 481z" />
    <glyph glyph-name="H" unicode="H" horiz-adv-x="1466" 
d="M140 0v-1466h294v587h598v-587h294v1466h-294v-645h-598v645h-294z" />
    <glyph glyph-name="I" unicode="I" horiz-adv-x="575" 
d="M140 0v-1466h295v1466h-295z" />
    <glyph glyph-name="J" unicode="J" horiz-adv-x="574" 
d="M434 -181c1 304 -135 467 -441 465h-127v-233h126c121 -3 148 -89 148 -222v-1295h294v1285z" />
    <glyph glyph-name="K" unicode="K" horiz-adv-x="1414" 
d="M434 -935c243 -113 410 -312 548 -531h377l-147 198c-148 189 -314 363 -527 484c341 156 528 482 724 784h-341c-122 -185 -231 -338 -365 -470c-83 -81 -158 -134 -269 -161v631h-294v-1466h294v531z" />
    <glyph glyph-name="L" unicode="L" horiz-adv-x="1113" 
d="M140 0v-1466h294v1232h674v234h-968z" />
    <glyph glyph-name="M" unicode="M" horiz-adv-x="1704" 
d="M1271 -982c-117 208 -206 445 -295 688h-254c-83 -249 -174 -485 -294 -693v987h-288v-1466h287c173 237 330 497 422 813h4c100 -308 242 -575 419 -813h292v1466h-293v-982z" />
    <glyph glyph-name="N" unicode="N" horiz-adv-x="1471" 
d="M416 -1466c225 293 441 594 625 910h4v-910h286v1466h-283c-44 -88 -91 -177 -140 -266l-153 -263l-161 -255l-168 -241v1025h-286v-1466h276z" />
    <glyph glyph-name="O" unicode="O" horiz-adv-x="1582" 
d="M133 -414c-71 -177 -70 -425 -5 -608c97 -272 305 -468 664 -468c350 0 559 185 658 448c69 181 69 442 -2 621c-102 259 -311 445 -657 445c-344 0 -556 -183 -658 -438zM498 -1122c-106 118 -155 415 -86 624c55 165 171 289 378 289c291 0 412 -220 412 -523
c0 -241 -85 -411 -246 -490c-97 -47 -227 -47 -326 -2c-50 22 -93 58 -132 102z" />
    <glyph glyph-name="P" unicode="P" horiz-adv-x="1289" 
d="M949 -986c0 -161 -111 -246 -270 -246h-245v1232h-294v-1466h524c274 1 459 113 547 298c53 113 47 263 -5 369c-89 182 -330 290 -597 231c-53 -12 -94 -38 -140 -68l105 -210c75 74 239 81 312 4c33 -34 63 -81 63 -144z" />
    <glyph glyph-name="Q" unicode="Q" horiz-adv-x="1538" 
d="M1439 -934c64 264 -9 537 -139 693c88 110 179 235 233 366l-246 132c-47 -121 -112 -231 -182 -325c-147 92 -365 121 -555 64c-254 -76 -428 -260 -487 -523c-94 -416 88 -778 390 -905c140 -59 338 -79 499 -31c257 76 422 261 487 529zM753 -1257
c-304 0 -413 229 -413 545c0 235 90 396 249 470c109 51 252 42 353 -13c-55 -53 -110 -101 -173 -147l160 -192c37 27 70 52 101 77s58 48 81 69c59 -128 69 -362 19 -508c-57 -168 -169 -301 -377 -301z" />
    <glyph glyph-name="R" unicode="R" horiz-adv-x="1424" 
d="M573 -847c78 78 245 76 319 -1c50 -52 82 -152 42 -235c-42 -87 -125 -150 -250 -150h-250v1233h-294v-1466h537c254 4 439 104 531 274c70 128 52 325 -31 424c-58 69 -136 130 -239 157c64 49 132 120 176 182l305 429h-333c-163 -210 -291 -468 -533 -594
c-30 -16 -58 -30 -84 -42z" />
    <glyph glyph-name="S" unicode="S" horiz-adv-x="1342" 
d="M410 -1061c-4 145 107 175 258 176c273 1 470 94 562 274c55 110 57 267 -1 374c-93 175 -292 261 -561 261c-282 0 -469 -129 -556 -328c-29 -66 -42 -137 -42 -214h282c9 197 119 307 316 307c170 0 317 -45 317 -212c0 -170 -144 -224 -317 -228
c-305 -6 -546 -104 -546 -410c0 -220 150 -337 326 -397c136 -46 335 -40 464 6c186 67 312 203 318 441h-283c-11 -169 -98 -250 -279 -247c-146 3 -254 58 -258 197z" />
    <glyph glyph-name="T" unicode="T" horiz-adv-x="1238" 
d="M471 0v-1232h-451v-234h1198v234h-454v1232h-293z" />
    <glyph glyph-name="U" unicode="U" horiz-adv-x="1468" 
d="M1328 -554c-6 274 -152 446 -354 532c-143 61 -338 61 -479 -2c-202 -91 -355 -270 -355 -549v-893h293v899c1 169 71 286 189 335c179 74 334 -39 386 -176c16 -42 26 -89 26 -140v-918h294v912z" />
    <glyph glyph-name="V" unicode="V" horiz-adv-x="1401" 
d="M1396 -1466c-138 537 -320 1025 -561 1466h-276c-240 -439 -424 -923 -554 -1466h300c92 407 222 793 389 1158c167 -353 295 -737 392 -1158h310z" />
    <glyph glyph-name="W" unicode="W" horiz-adv-x="1896" 
d="M1891 -1466c-84 527 -209 1037 -391 1466h-283c-117 -251 -213 -537 -280 -839c-66 296 -155 586 -262 839h-283c-191 -419 -320 -924 -387 -1466h303c41 386 115 753 221 1068c102 -322 174 -693 230 -1068h373c43 386 117 752 223 1068c102 -322 171 -694 228 -1068
h308z" />
    <glyph glyph-name="X" unicode="X" horiz-adv-x="1368" 
d="M680 -560c-142 166 -279 341 -364 560h-311c116 -309 299 -541 499 -762l-126 -158c-125 -164 -238 -339 -322 -546h321c79 198 189 357 315 506l91 -110c95 -119 182 -249 250 -396h301c-112 277 -285 491 -465 700l131 156c143 179 266 377 363 610h-321
c-92 -215 -224 -391 -362 -560z" />
    <glyph glyph-name="Y" unicode="Y" horiz-adv-x="1451" 
d="M1446 -1466c-150 313 -340 569 -585 788v678h-293v-679c-240 -222 -423 -461 -563 -787h327c90 232 226 406 389 560c165 -155 298 -335 397 -560h328z" />
    <glyph glyph-name="Z" unicode="Z" horiz-adv-x="1355" 
d="M1252 -1258c-328 317 -615 642 -830 1024h853v234h-1195v-210c203 -382 479 -718 771 -1022h-731v-234h1132v208z" />
    <glyph glyph-name="bracketleft" unicode="[" horiz-adv-x="665" 
d="M140 407v-1873h475v207h-200v1459h200v207h-475z" />
    <glyph glyph-name="backslash" unicode="\" horiz-adv-x="692" 
d="M428 23l-408 -1487h245l407 1487h-244z" />
    <glyph glyph-name="bracketright" unicode="]" horiz-adv-x="665" 
d="M525 407h-475v-207h199v-1459h-199v-207h475v1873z" />
    <glyph glyph-name="asciicircum" unicode="^" horiz-adv-x="1004" 
d="M322 -647h-282l353 -818h216l355 818h-281l-183 -452z" />
    <glyph glyph-name="underscore" unicode="_" horiz-adv-x="1165" 
d="M-20 381v-189h1205v189h-1205z" />
    <glyph glyph-name="grave" unicode="`" horiz-adv-x="634" 
d="M544 -1223l-236 86l-292 -454l276 -76z" />
    <glyph glyph-name="a" unicode="a" horiz-adv-x="1155" 
d="M603 -1084c272 2 432 117 432 381v703h-264l-1 -143c-74 100 -174 165 -342 165c-208 0 -348 -111 -348 -318c0 -185 119 -275 264 -324c115 -38 267 -21 413 -25c12 -145 -38 -233 -177 -233c-125 0 -196 33 -214 137h-264c41 -246 211 -345 501 -343zM366 -301
c-7 116 137 152 236 104c89 -43 164 -112 155 -249h-214c-106 0 -171 47 -177 145z" />
    <glyph glyph-name="b" unicode="b" horiz-adv-x="1156" 
d="M668 24c-135 0 -226 -62 -286 -138v114h-262v-1466h277v514h2c54 -77 133 -132 249 -132c231 0 346 147 400 334c59 204 21 480 -73 610c-66 91 -159 164 -307 164zM589 -178c209 0 233 -291 190 -495c-23 -108 -75 -205 -196 -205c-112 0 -160 103 -185 206
c-44 178 -3 398 110 469c25 17 52 25 81 25z" />
    <glyph glyph-name="c" unicode="c" horiz-adv-x="1150" 
d="M567 -184c121 0 189 -69 223 -181h287c-63 232 -221 387 -509 387c-333 0 -498 -212 -498 -549c0 -266 109 -443 298 -520c170 -69 399 -39 524 59c84 66 148 160 188 286h-290c-36 -98 -91 -176 -215 -176c-177 0 -225 161 -225 346c0 184 46 348 217 348z" />
    <glyph glyph-name="d" unicode="d" horiz-adv-x="1146" 
d="M498 -1084c117 0 194 59 251 132v-514h277v1466h-262l-1 -114c-58 77 -151 138 -285 138c-226 0 -334 -155 -383 -340c-57 -215 -12 -484 87 -611c70 -89 167 -157 316 -157zM367 -673c-40 203 -18 495 190 495c115 0 165 -103 191 -206c44 -178 3 -397 -108 -470
c-90 -59 -193 5 -228 70c-17 32 -36 67 -45 111z" />
    <glyph glyph-name="e" unicode="e" horiz-adv-x="1168" 
d="M591 -184c112 0 169 -72 204 -167h283c-44 171 -155 284 -312 344c-53 20 -112 29 -176 29c-344 -5 -520 -201 -520 -545c0 -266 111 -443 300 -523c122 -51 296 -50 419 0c212 86 324 296 309 607h-745c10 152 83 255 238 255zM799 -645c-20 -149 -73 -233 -217 -233
c-139 0 -209 92 -219 233h436z" />
    <glyph glyph-name="f" unicode="f" horiz-adv-x="631" 
d="M509 -1269c-105 -6 -80 110 -83 207h190v199h-190v863h-274v-863h-147v-199h147v-99c-6 -244 163 -362 415 -323c35 5 76 11 122 20l-36 215c-54 -11 -97 -17 -144 -20z" />
    <glyph glyph-name="g" unicode="g" horiz-adv-x="1170" 
d="M762 -111c-68 109 -280 142 -418 71c-164 -84 -264 -253 -264 -497c0 -242 89 -422 249 -506c53 -27 112 -41 179 -41c127 2 223 51 279 123v-101h263v893c-3 365 -175 573 -543 575h-140v-205c94 -2 200 7 263 -25c91 -46 138 -155 132 -287zM570 -878
c-161 0 -207 156 -209 329c-2 191 48 342 211 342c166 0 213 -158 213 -336c0 -177 -51 -335 -215 -335z" />
    <glyph glyph-name="h" unicode="h" horiz-adv-x="1139" 
d="M598 -872c-143 0 -204 107 -204 259v613h-274v-1466h274l1 515c56 -76 142 -133 267 -133c247 0 357 143 357 387v697h-275v-642c-1 -133 -30 -230 -146 -230z" />
    <glyph glyph-name="i" unicode="i" horiz-adv-x="514" 
d="M120 -1205v-261h274v261h-274zM120 0v-1062h274v1062h-274z" />
    <glyph glyph-name="j" unicode="j" horiz-adv-x="514" 
d="M120 -1203v-263h274v263h-274zM394 21c0 228 -72 383 -300 383h-163v-199h143c52 -21 46 -116 46 -188v-1079h274v1083z" />
    <glyph glyph-name="k" unicode="k" horiz-adv-x="1061" 
d="M1032 -1062c-125 157 -256 300 -392 434c166 190 294 394 416 628h-319c-79 -176 -165 -323 -284 -464l-58 46v418h-275v-1466h275l1 747c111 -96 221 -217 308 -343h328z" />
    <glyph glyph-name="l" unicode="l" horiz-adv-x="516" 
d="M120 0v-1466h276v1466h-276z" />
    <glyph glyph-name="m" unicode="m" horiz-adv-x="1670" 
d="M582 -871c-142 0 -185 133 -185 274v597h-277v-1062h259l1 123c54 -79 145 -145 269 -145c146 0 237 57 289 167c60 -86 139 -167 277 -167c234 0 334 135 335 368v716h-273v-688c-1 -102 -23 -183 -119 -183c-137 0 -182 112 -182 259v612h-276v-680
c-1 -113 -19 -191 -118 -191z" />
    <glyph glyph-name="n" unicode="n" horiz-adv-x="1138" 
d="M597 -872c-142 0 -202 109 -202 259v613h-275v-1062h257l1 134c60 -91 151 -156 293 -156c243 0 347 147 347 387v697h-274v-642c-1 -134 -28 -230 -147 -230z" />
    <glyph glyph-name="o" unicode="o" horiz-adv-x="1163" 
d="M1093 -545c0 350 -162 567 -511 567c-340 0 -512 -213 -512 -553c0 -258 110 -432 294 -512c123 -54 311 -54 434 -1c182 79 295 246 295 499zM582 -878c-174 0 -231 159 -231 347s55 347 231 347c177 0 232 -161 232 -353c0 -186 -60 -341 -232 -341z" />
    <glyph glyph-name="p" unicode="p" horiz-adv-x="1156" 
d="M648 22c-117 -1 -194 -59 -251 -132v517h-277v-1469h262l1 114c58 -77 151 -138 285 -138c293 0 408 232 408 530c0 250 -85 443 -246 534c-53 30 -113 44 -182 44zM779 -389c40 -203 18 -495 -190 -495c-115 0 -165 103 -191 206c-44 178 -3 397 108 470
c90 59 193 -5 228 -70c17 -32 36 -67 45 -111z" />
    <glyph glyph-name="q" unicode="q" horiz-adv-x="1156" 
d="M488 -1086c135 0 226 62 286 138v-114h262v1469h-277v-517h-2c-54 77 -133 132 -249 132c-233 0 -346 -159 -400 -350c-57 -203 -24 -477 73 -604c66 -87 161 -154 307 -154zM567 -884c-209 0 -233 291 -190 495c23 108 75 205 196 205c112 0 160 -103 185 -206
c44 -178 2 -396 -110 -468c-25 -16 -52 -26 -81 -26z" />
    <glyph glyph-name="r" unicode="r" horiz-adv-x="769" 
d="M662 -780c-25 -34 -82 -62 -136 -63c-87 0 -131 96 -131 289v554h-275v-1062h259v144h3c36 -86 100 -160 204 -168c88 -7 133 34 178 80z" />
    <glyph glyph-name="s" unicode="s" horiz-adv-x="1076" 
d="M510 -878c-92 -6 -169 66 -120 144c84 85 297 77 406 134c110 58 200 124 200 274c0 188 -129 282 -280 326c-172 50 -391 11 -491 -70c-71 -57 -122 -135 -145 -237l273 -44c28 95 80 166 195 167c97 1 169 -40 169 -124s-101 -97 -174 -114
c-144 -34 -257 -70 -346 -136c-87 -64 -121 -213 -65 -330c61 -127 196 -198 387 -198c245 0 402 102 439 310l-270 37c-17 -82 -83 -133 -178 -139z" />
    <glyph glyph-name="t" unicode="t" horiz-adv-x="708" 
d="M463 -212c38 -2 71 -8 122 -16l33 215c-68 14 -121 25 -183 26c-203 4 -285 -93 -285 -282v-594h-120v-199h120v-242l274 -169v411h167v199h-167v547c4 72 -6 96 39 104z" />
    <glyph glyph-name="u" unicode="u" horiz-adv-x="1138" 
d="M541 -190c142 0 202 -108 202 -259v-613h275v1062h-257l-1 -134c-61 91 -151 156 -293 156c-243 0 -347 -147 -347 -387v-697h274v642c1 134 28 230 147 230z" />
    <glyph glyph-name="v" unicode="v" horiz-adv-x="1031" 
d="M1026 -1062c-93 390 -218 744 -394 1062h-232c-159 -329 -301 -672 -395 -1062h277c62 263 140 499 237 716c95 -214 174 -461 234 -716h273z" />
    <glyph glyph-name="w" unicode="w" horiz-adv-x="1468" 
d="M727 -500c-33 176 -87 352 -149 500h-248c-140 -329 -260 -670 -325 -1062h276c42 241 97 468 170 671c72 -207 117 -430 154 -671h271c33 238 68 478 143 674c74 -203 135 -441 180 -674h264c-64 390 -191 739 -333 1062h-247c-62 -152 -122 -321 -156 -500z" />
    <glyph glyph-name="x" unicode="x" horiz-adv-x="1057" 
d="M533 -719c85 -102 166 -210 219 -343h275c-66 215 -196 375 -330 524l107 124c100 121 194 249 248 414h-282c-56 -130 -153 -253 -238 -354c-91 106 -183 220 -246 354h-281c79 -219 222 -378 363 -536l-105 -122c-95 -116 -182 -242 -228 -404h277
c48 135 133 243 221 343z" />
    <glyph glyph-name="y" unicode="y" horiz-adv-x="1030" 
d="M529 -352c95 -223 163 -454 223 -710h273c-105 442 -264 843 -449 1226c-65 136 -184 236 -362 240h-121v-199c53 -3 104 8 141 -15c72 -46 118 -131 149 -222c-155 -326 -274 -661 -378 -1030h281c61 258 145 485 243 710z" />
    <glyph glyph-name="z" unicode="z" horiz-adv-x="1133" 
d="M80 0v-174l108 -166c125 -187 267 -361 430 -518h-500v-204h906v153l-192 191c-154 159 -299 312 -407 505h628v213h-973z" />
    <glyph glyph-name="braceleft" unicode="{" horiz-adv-x="802" 
d="M370 -531c129 73 165 214 165 422c0 111 3 190 27 256c20 55 90 42 160 44v215c-192 9 -343 -21 -406 -146c-77 -151 -6 -465 -86 -621c-26 -50 -74 -58 -150 -59v-221c192 11 189 -138 189 -327c0 -274 33 -504 309 -498h144v215h-64c-167 -13 -118 190 -126 345
c-9 181 -38 309 -162 375z" />
    <glyph glyph-name="bar" unicode="|" horiz-adv-x="511" 
d="M160 406v-1872h255v1872h-255z" />
    <glyph glyph-name="asciitilde" unicode="~" horiz-adv-x="1248" 
d="M1148 -656c-84 81 -163 129 -310 132c-164 2 -293 -125 -444 -125c-74 0 -94 25 -154 78c-35 31 -81 74 -140 131v-313c118 -153 348 -176 536 -87l112 44l-1 -1c58 20 103 46 161 13c89 -51 168 -129 240 -206v334z" />
    <glyph glyph-name="space" unicode=" " horiz-adv-x="598" 
 />
    <glyph glyph-name="braceright" unicode="}" horiz-adv-x="802" 
d="M224 -1466c275 -6 309 222 309 496c0 187 -8 339 189 329v221c-424 -25 96 833 -535 826h-107v-215c69 -2 139 11 160 -45c24 -65 27 -145 27 -255c0 -208 36 -349 165 -422c-169 -82 -166 -311 -165 -562c1 -101 -23 -161 -123 -158h-64v-215h144z" />
    </font>
</defs>
</svg>
