<?xml version="1.0" standalone="no"?>
<!DOCTYPE svg PUBLIC "-//W3C//DTD SVG 1.1//EN" "http://www.w3.org/Graphics/SVG/1.1/DTD/svg11.dtd" >
<svg>
<metadata>
Created by FontForge 20090914 at Sat Apr 30 17:54:44 2011
 By www-data
Copyright (c) 1999-2007 by Ruben Tarumian. All rights reserved.
</metadata>
<defs>
<font id="ArianAMU-BoldItalic" horiz-adv-x="1224" >
  <font-face 
    font-family="Arian AMU"
    font-weight="700"
    font-style="italic"
    font-stretch="normal"
    units-per-em="2048"
    panose-1="1 0 0 0 0 0 0 0 0 0"
    ascent="1638"
    descent="-410"
    x-height="22"
    bbox="-210 -1667 2283 407.059"
    underline-thickness="150"
    underline-position="-142"
    slope="-12"
    unicode-range="U+0020-U+007E"
  />
    <missing-glyph />
    <glyph glyph-name="exclam" unicode="!" horiz-adv-x="595" 
d="M296 -391l139 -710l97 -365h315l-97 365l-241 710h-213zM167 0l69 -259h260l-69 259h-260z" />
    <glyph glyph-name="quotedbl" unicode="&#x22;" horiz-adv-x="844" 
d="M436 -913l27 -295l69 -258h259l-68 256l-127 297h-160zM739 -913l29 -295l69 -258h259l-69 258l-129 295h-159z" />
    <glyph glyph-name="numbersign" unicode="#" horiz-adv-x="1391" 
d="M201 23l187 -399h-148l56 -207h187l128 -272h-242l55 -207h283l189 -403h249l-189 403h178l188 -403h250l-189 403h152l-55 207h-191l-128 272h246l-56 207h-287l-189 399h-248l187 -399h-178l-186 399h-249zM733 -583h178l127 -272h-177z" />
    <glyph glyph-name="dollar" unicode="$" horiz-adv-x="1200" 
d="M447 198l48 -176c-173 -31 -294 -101 -302 -286c-2 -52 7 -110 24 -175l284 -52c-15 121 -20 239 53 291l123 -460c-175 -50 -320 -182 -263 -409c58 -233 228 -368 483 -411l23 -87h207l-23 87c199 37 284 156 259 392l-291 42c13 -105 3 -172 -30 -202l-108 402
c194 50 345 179 279 422c-49 183 -177 320 -336 398c-55 27 -114 43 -176 50l-47 174h-207zM838 -1258c-86 42 -148 120 -154 240c-3 57 26 87 60 110zM761 -201c98 -48 172 -146 181 -283c4 -65 -33 -89 -74 -114z" />
    <glyph glyph-name="percent" unicode="%" horiz-adv-x="1722" 
d="M496 -701c-169 -83 -115 -389 -28 -527c78 -125 189 -236 380 -236c164 0 260 84 260 239c0 254 -130 444 -316 524c-86 38 -216 39 -296 0zM850 -1232c-6 -56 -70 -59 -104 -20c-41 47 -71 126 -89 192c-20 73 -24 125 -17 158c17 76 95 47 123 2
c48 -76 100 -206 87 -332zM397 0l1152 -1466h248l-1149 1466h-251zM1172 20c-170 -84 -114 -389 -28 -528c78 -126 188 -235 381 -235c164 0 261 84 261 239c0 254 -130 445 -316 525c-86 38 -218 38 -298 -1zM1332 -339c-14 59 -50 199 32 206c65 -8 90 -61 114 -117
c28 -63 64 -172 50 -261c-9 -55 -72 -60 -106 -21c-41 47 -74 126 -90 193z" />
    <glyph glyph-name="ampersand" unicode="&#x26;" horiz-adv-x="1353" 
d="M974 -125c-139 114 -383 200 -598 115c-142 -56 -241 -200 -186 -402c60 -220 222 -336 409 -441c-49 -78 -77 -186 -43 -298c46 -153 170 -258 319 -313c143 -53 328 -17 400 70c68 82 57 237 1 330c-70 116 -177 209 -313 263l115 215c25 -43 49 -89 72 -139l263 60
c-67 124 -124 225 -209 318c36 75 86 142 155 175l-161 219c-107 -23 -178 -92 -224 -172zM974 -1285c-141 0 -172 205 -102 317c81 -37 139 -102 165 -191c20 -68 -5 -126 -63 -126zM686 -678c-97 60 -171 138 -204 256c-39 136 45 266 192 219c78 -25 145 -72 198 -125z
" />
    <glyph glyph-name="quotesingle" unicode="'" horiz-adv-x="578" 
d="M433 -913l29 -290l70 -263h298l-70 263l-127 290h-200z" />
    <glyph glyph-name="parenleft" unicode="(" horiz-adv-x="706" 
d="M161 152c-139 -518 71 -1007 313 -1308c82 -102 180 -210 270 -310h246c-302 357 -525 701 -585 1270c-25 236 36 416 91 603h-239c-41 -89 -73 -174 -96 -255z" />
    <glyph glyph-name="parenright" unicode=")" horiz-adv-x="706" 
d="M850 -1156c95 410 -50 802 -218 1072c-111 178 -244 334 -403 491h-238l136 -167c216 -260 367 -562 438 -964c46 -263 6 -517 -65 -742h246c23 58 43 112 60 163s32 99 44 147z" />
    <glyph glyph-name="asterisk" unicode="*" horiz-adv-x="942" 
d="M386 -1143l124 -209l190 91l44 -226h249l-78 226l242 -88l10 210l-250 55l114 183l-234 139l-71 -189l-163 191l-160 -139l206 -185z" />
    <glyph glyph-name="plus" unicode="+" horiz-adv-x="1110" 
d="M469 -222v-376h-366v-225h366v-374h268v374h366v225h-366v376h-268z" />
    <glyph glyph-name="comma" unicode="," horiz-adv-x="601" 
d="M162 0l69 -259h299c-45 155 -69 333 -175 427c-58 52 -125 88 -205 122l-52 -135c81 -33 128 -72 157 -155h-93z" />
    <glyph glyph-name="hyphen" unicode="-" horiz-adv-x="780" 
d="M210 -412l63 -237h580l-63 237h-580z" />
    <glyph glyph-name="period" unicode="." horiz-adv-x="498" 
d="M60 0l69 -259h298l-69 259h-298z" />
    <glyph glyph-name="slash" unicode="/" horiz-adv-x="692" 
d="M13 23l807 -1489h244l-806 1489h-245z" />
    <glyph glyph-name="zero" unicode="0" 
d="M606 23c-269 1 -400 -143 -387 -409c18 -349 123 -640 287 -856c107 -142 262 -246 506 -248c270 -2 394 146 390 410c-3 196 -53 359 -108 514c-89 248 -227 467 -478 556c-62 22 -133 33 -210 33zM564 -738c-33 130 -88 312 -38 454c19 54 64 93 139 89
c185 -9 255 -158 315 -297c64 -146 107 -309 130 -488c20 -152 -4 -297 -157 -291c-183 7 -249 155 -310 291c-34 75 -58 160 -79 242z" />
    <glyph glyph-name="one" unicode="1" 
d="M886 0h-276l332 -1241h-239l60 -225h515z" />
    <glyph glyph-name="two" unicode="2" 
d="M530 -1347c120 -88 242 -142 433 -144c291 -3 464 199 381 497c-68 245 -253 410 -428 557c-90 76 -195 146 -296 205l-1 3h527l-61 229h-933l55 -206c298 -166 591 -374 787 -645c79 -109 131 -332 -10 -394c-119 -52 -252 16 -337 69z" />
    <glyph glyph-name="three" unicode="3" 
d="M506 -1290c117 -121 261 -201 481 -201c175 0 309 75 339 215c41 188 -85 323 -206 399c110 63 183 212 133 385c-68 233 -251 394 -471 476c-147 55 -321 50 -452 -10c-69 -32 -121 -80 -158 -145l248 -175c43 105 166 179 305 126c118 -45 206 -138 241 -270
c41 -156 -35 -260 -180 -267h-91l57 -210c85 3 160 1 206 -43c69 -42 130 -220 13 -253c-119 -33 -200 31 -266 104z" />
    <glyph glyph-name="four" unicode="4" 
d="M722 0l88 -329h-631l51 -192c278 -343 596 -666 941 -945h220l-245 915h143l-59 222h-143l-88 329h-277zM869 -551l134 -500c-169 147 -317 327 -462 500h328z" />
    <glyph glyph-name="five" unicode="5" 
d="M681 -938c110 -41 271 -42 385 -4c167 56 261 213 197 440c-69 242 -234 410 -465 488c-147 49 -345 53 -469 -14c-77 -42 -137 -108 -167 -204l269 -149c29 108 76 184 206 179c186 -7 286 -129 332 -285c43 -148 -10 -279 -161 -276c-104 2 -175 55 -241 113h-248
l218 -816h903l-62 231h-618z" />
    <glyph glyph-name="six" unicode="6" 
d="M666 24c-280 0 -427 -169 -402 -468c29 -356 186 -679 382 -864c151 -143 421 -234 674 -152c58 19 104 47 140 77l-175 200c-111 -89 -208 -117 -342 -66c-163 62 -251 223 -313 400c108 -99 348 -133 517 -69c159 60 249 221 187 439c-64 227 -241 386 -456 465
c-71 25 -141 38 -212 38zM882 -741c-181 6 -278 124 -321 271c-45 151 17 274 167 270c183 -5 274 -127 318 -279c41 -142 -19 -267 -164 -262z" />
    <glyph glyph-name="seven" unicode="7" 
d="M469 -1237l61 -229h980l-45 168c-342 387 -665 818 -883 1298h-306c229 -462 519 -880 861 -1237h-668z" />
    <glyph glyph-name="eight" unicode="8" 
d="M193 -264c-39 -235 100 -421 235 -536c35 -30 72 -54 109 -73c-55 -55 -94 -140 -62 -249c67 -227 263 -369 549 -369c233 0 410 119 348 369c-27 109 -107 188 -194 247c105 70 169 241 122 410c-63 229 -238 380 -458 453c-135 44 -297 48 -424 0
c-114 -43 -204 -126 -225 -252zM723 -734c-136 60 -249 185 -243 373c4 108 81 159 199 159c190 0 295 -116 336 -270c42 -156 -35 -284 -188 -284c-35 0 -69 8 -104 22zM1026 -1262c-148 -44 -279 57 -270 210c6 107 183 102 252 47c75 -37 131 -224 18 -257z" />
    <glyph glyph-name="nine" unicode="9" 
d="M1007 -1491c277 3 433 148 409 443c-29 361 -190 684 -385 876c-151 149 -419 251 -679 166c-58 -19 -104 -46 -140 -76l175 -200c112 90 212 120 343 62c163 -72 257 -242 320 -425c-85 68 -193 121 -326 123c-284 4 -465 -169 -385 -466c62 -227 220 -389 436 -465
c73 -25 150 -38 232 -38zM793 -733c180 -5 276 -117 319 -264c44 -151 -17 -274 -167 -270c-183 5 -274 127 -318 279c-41 142 21 259 166 255z" />
    <glyph glyph-name="colon" unicode=":" horiz-adv-x="578" 
d="M355 -803l69 -259h298l-69 259h-298zM140 0l69 -259h298l-69 259h-298z" />
    <glyph glyph-name="semicolon" unicode=";" horiz-adv-x="601" 
d="M377 -803l69 -259h299l-69 259h-299zM162 0l69 -259h299c-45 152 -65 318 -167 416c-52 50 -122 96 -213 133l-52 -136c92 -36 124 -68 157 -154h-93z" />
    <glyph glyph-name="less" unicode="&#x3c;" horiz-adv-x="1122" 
d="M185 -617l51 -191l1118 -432l-67 249l-741 279l591 282l-67 250z" />
    <glyph glyph-name="equal" unicode="=" horiz-adv-x="1200" 
d="M1316 -807h-1000l60 -225h1000zM1204 -391h-1000l60 -224h1000z" />
    <glyph glyph-name="greater" unicode="&#x3e;" horiz-adv-x="1122" 
d="M1267 -617l-1119 437l67 -250l740 -282l-590 -279l67 -249l886 432z" />
    <glyph glyph-name="question" unicode="?" horiz-adv-x="1179" 
d="M932 -1258c-165 0 -244 124 -285 263h-281c60 -210 213 -358 411 -433c182 -69 433 -30 525 80c60 71 94 169 59 293c-79 282 -381 342 -501 585c-19 38 -37 81 -50 132h-269c60 -236 202 -382 367 -507c84 -64 192 -132 176 -281c-8 -78 -64 -132 -152 -132zM442 0
l66 -250h288l-66 250h-288z" />
    <glyph glyph-name="at" unicode="@" horiz-adv-x="2024" 
d="M1982 -85c-157 297 -449 489 -883 489c-463 0 -775 -186 -919 -510c-116 -261 -71 -657 50 -870c160 -282 418 -490 849 -490c385 0 647 174 775 444c89 187 78 468 -14 640c-82 154 -195 290 -362 355c-124 49 -333 49 -380 -61c-90 79 -263 123 -397 56
c-171 -86 -269 -319 -210 -574c49 -214 167 -380 359 -452c139 -52 309 -18 392 67l14 -71h275l-165 790c-1 20 -7 47 7 52c117 -9 174 -98 225 -180c74 -118 124 -309 70 -479c-80 -250 -278 -402 -597 -402c-335 0 -526 174 -646 398c-95 177 -120 499 -35 703
c108 258 346 398 706 398c298 0 509 -125 642 -303h244zM1141 -472c49 -154 41 -404 -133 -404c-147 0 -218 133 -258 261c-49 159 -30 397 136 412c142 -17 214 -142 255 -269z" />
    <glyph glyph-name="A" unicode="A" horiz-adv-x="1391" 
d="M529 -423c-81 135 -158 269 -226 423h-298c191 -403 405 -753 655 -1098l278 -368h294c114 440 197 913 154 1466h-301c8 -134 18 -289 5 -423h-561zM1078 -642l-32 -260c-6 -40 -11 -80 -18 -120s-16 -83 -27 -126c-129 167 -230 331 -344 506h421z" />
    <glyph glyph-name="B" unicode="B" horiz-adv-x="1330" 
d="M140 0l392 -1466h560c212 1 367 76 402 244c27 127 -29 233 -86 313c-37 51 -87 94 -150 131c86 60 152 179 114 320c-59 218 -221 360 -435 426c-72 21 -147 32 -226 32h-571zM759 -879c131 -3 275 15 352 -51c59 -51 132 -188 51 -258c-72 -62 -261 -40 -398 -44
l-268 998c163 -6 346 23 453 -48c71 -47 140 -135 126 -252c-17 -141 -220 -108 -379 -111z" />
    <glyph glyph-name="C" unicode="C" horiz-adv-x="1546" 
d="M847 -203c249 0 369 -156 460 -327h311c-116 220 -302 409 -550 504c-165 63 -388 67 -544 -4c-231 -105 -339 -385 -245 -713c91 -320 295 -565 587 -687c222 -93 564 -74 702 66c82 83 133 198 142 352h-300c-21 -156 -125 -250 -294 -250c-220 0 -334 131 -429 266
c-128 183 -232 632 8 758c44 24 95 35 152 35z" />
    <glyph glyph-name="D" unicode="D" horiz-adv-x="1491" 
d="M140 0l392 -1466h573c330 2 548 142 573 433c30 355 -154 647 -358 820c-144 121 -334 213 -583 213h-597zM495 -234c167 -5 337 18 467 -31c205 -76 326 -250 389 -478c74 -272 -30 -497 -310 -489h-278z" />
    <glyph glyph-name="E" unicode="E" horiz-adv-x="1374" 
d="M140 0l392 -1466h1102l-62 233h-808l-95 354h708l-63 234h-708l-110 411h840l-62 234h-1134z" />
    <glyph glyph-name="F" unicode="F" horiz-adv-x="1216" 
d="M140 0l392 -1466h1036l-62 233h-742l-95 354h642l-63 234h-642l-172 645h-294z" />
    <glyph glyph-name="G" unicode="G" horiz-adv-x="1517" 
d="M803 -548l63 -234h760l-163 608c-203 116 -419 194 -694 198c-428 6 -654 -311 -535 -750c93 -342 301 -593 615 -710c157 -58 370 -77 527 -19c181 67 277 227 309 443h-308c-16 -110 -83 -193 -175 -228c-173 -65 -357 27 -454 122c-134 132 -242 357 -242 610
c0 226 165 332 408 302c110 -14 200 -35 289 -74l71 -268h-471z" />
    <glyph glyph-name="H" unicode="H" horiz-adv-x="1466" 
d="M140 0l392 -1466h294l-157 587h598l157 -587h294l-392 1466h-294l172 -645h-598l-172 645h-294z" />
    <glyph glyph-name="I" unicode="I" horiz-adv-x="575" 
d="M140 0l392 -1466h295l-392 1466h-295z" />
    <glyph glyph-name="J" unicode="J" horiz-adv-x="574" 
d="M-147 51c107 -1 201 11 253 -55c30 -38 59 -92 79 -167l347 -1295h294l-344 1285c-73 272 -224 463 -565 465h-127z" />
    <glyph glyph-name="K" unicode="K" horiz-adv-x="1414" 
d="M684 -935c284 -118 498 -318 690 -531h377l-201 198c-195 185 -404 359 -655 484c285 144 397 472 514 784h-341c-73 -186 -143 -341 -240 -470c-62 -83 -125 -136 -225 -161l-169 631h-294l392 -1466h294z" />
    <glyph glyph-name="L" unicode="L" horiz-adv-x="1113" 
d="M140 0l392 -1466h294l-330 1232h674l-62 234h-968z" />
    <glyph glyph-name="M" unicode="M" horiz-adv-x="1704" 
d="M1027 -653c180 -303 393 -571 637 -813h292l-392 1466h-293l263 -982c-175 207 -327 455 -480 688h-254c-17 -253 -44 -488 -108 -693l-264 987h-288l392 -1466h287c106 232 196 486 204 813h4z" />
    <glyph glyph-name="N" unicode="N" horiz-adv-x="1471" 
d="M1048 0c-88 -365 -204 -715 -348 -1025l-274 1025h-286l392 -1466h276c146 291 281 591 381 910h4l244 -910h286l-392 1466h-283z" />
    <glyph glyph-name="O" unicode="O" horiz-adv-x="1582" 
d="M329 -180c-169 -230 -58 -637 73 -842c115 -179 271 -325 474 -408c176 -72 421 -81 590 -6c230 103 320 388 231 705c-94 335 -308 582 -614 701c-176 68 -406 75 -569 0c-77 -36 -138 -86 -185 -150zM798 -1122c-140 131 -262 364 -254 624c5 181 115 289 302 289
c233 0 365 -137 460 -297c85 -144 176 -433 79 -614c-45 -84 -132 -137 -256 -137c-141 0 -248 57 -331 135z" />
    <glyph glyph-name="P" unicode="P" horiz-adv-x="1289" 
d="M800 -846c68 84 234 69 312 4c61 -51 128 -142 106 -252c-18 -92 -99 -138 -209 -138h-245l-330 1232h-294l392 -1466h524c252 1 434 94 467 298c39 241 -104 407 -252 506c-124 83 -323 141 -511 94c-48 -12 -82 -38 -121 -68z" />
    <glyph glyph-name="Q" unicode="Q" horiz-adv-x="1538" 
d="M1364 -241c58 108 116 232 135 366l-281 132c-15 -123 -51 -233 -95 -325c-213 121 -550 125 -725 -14c-119 -94 -199 -238 -194 -445c5 -199 76 -360 158 -499c109 -183 271 -323 474 -406c206 -85 512 -73 660 45c120 96 203 240 193 453c-14 306 -154 526 -325 693z
M1010 -255c-41 -53 -83 -101 -134 -147l212 -192c52 47 101 97 143 146c135 -174 257 -641 7 -774c-93 -50 -228 -44 -329 -2c-203 84 -314 277 -379 512c-74 267 9 505 276 503c71 0 139 -15 204 -46z" />
    <glyph glyph-name="R" unicode="R" horiz-adv-x="1424" 
d="M799 -847c71 89 244 66 320 -1c58 -52 124 -125 105 -235c-17 -95 -96 -150 -210 -150h-250l-330 1233h-294l392 -1466h537c233 3 417 87 457 274c52 241 -103 425 -268 518c-47 28 -99 48 -157 63c50 48 98 118 127 182l191 429h-333c-106 -215 -174 -477 -374 -594
c-26 -16 -50 -30 -73 -42z" />
    <glyph glyph-name="S" unicode="S" horiz-adv-x="1342" 
d="M490 -518c-46 194 46 308 234 307c190 -1 335 -60 374 -212c44 -169 -91 -227 -256 -228c-278 -2 -521 -99 -436 -410c56 -205 227 -333 432 -397c139 -43 338 -40 464 6c166 61 258 221 198 441h-283c26 -126 -5 -215 -103 -235c-218 -44 -429 37 -429 256
c0 92 106 104 220 105c252 2 451 75 489 274c46 241 -106 415 -261 515c-162 104 -488 164 -709 78c-179 -69 -283 -253 -216 -500h282z" />
    <glyph glyph-name="T" unicode="T" horiz-adv-x="1238" 
d="M471 0l330 -1232h-451l62 -234h1198l-62 234h-454l-330 1232h-293z" />
    <glyph glyph-name="U" unicode="U" horiz-adv-x="1468" 
d="M1476 -554c-72 256 -258 440 -497 532c-148 57 -343 63 -478 -2c-176 -85 -277 -293 -208 -549l239 -893h293l-241 899c-54 194 18 358 207 358c153 0 255 -98 326 -199c29 -42 50 -89 63 -140l246 -918h294z" />
    <glyph glyph-name="V" unicode="V" horiz-adv-x="1401" 
d="M559 0c-120 -429 -178 -913 -162 -1466h300c-17 407 10 793 79 1158c264 -359 496 -742 702 -1158h310l-207 376c-71 124 -147 246 -225 368c-161 251 -334 490 -521 722h-276z" />
    <glyph glyph-name="W" unicode="W" horiz-adv-x="1896" 
d="M2283 -1466c-221 519 -482 1028 -783 1466h-283c-51 -245 -70 -547 -56 -839c-37 75 -75 151 -116 226l-123 221c-41 72 -84 142 -126 208l-121 184h-283c-87 -439 -63 -1020 5 -1466h303c-53 330 -87 700 -65 1068c191 -328 362 -700 516 -1068h373
c-51 332 -87 700 -63 1068c191 -328 359 -702 514 -1068h308z" />
    <glyph glyph-name="X" unicode="X" horiz-adv-x="1368" 
d="M830 -560c-189 168 -374 344 -514 560h-311c193 -303 438 -536 703 -762c-116 -206 -219 -423 -260 -704h321c27 203 96 361 180 506l120 -110l122 -120c83 -86 162 -178 234 -276h301c-182 271 -413 488 -652 700c134 217 243 457 289 766h-321
c-38 -220 -120 -395 -212 -560z" />
    <glyph glyph-name="Y" unicode="Y" horiz-adv-x="1451" 
d="M963 -906c212 -158 391 -340 547 -560h328c-228 306 -486 564 -796 788l-181 678h-293l181 -679c-174 -216 -298 -450 -352 -787h327c30 240 121 410 239 560z" />
    <glyph glyph-name="Z" unicode="Z" horiz-adv-x="1355" 
d="M80 0l56 -210c298 -376 670 -714 1045 -1022h-731l62 -234h1132l-55 208c-418 320 -793 648 -1105 1024h853l-62 234h-1195z" />
    <glyph glyph-name="bracketleft" unicode="[" horiz-adv-x="665" 
d="M30 407l502 -1873h475l-55 207h-200l-391 1459h200l-56 207h-475z" />
    <glyph glyph-name="backslash" unicode="\" horiz-adv-x="692" 
d="M421 23l-9 -1487h245l8 1487h-244z" />
    <glyph glyph-name="bracketright" unicode="]" horiz-adv-x="665" 
d="M415 407h-474l56 -207h198l391 -1459h-199l55 -207h475z" />
    <glyph glyph-name="asciicircum" unicode="^" horiz-adv-x="1004" 
d="M495 -647h-282l572 -818h216l136 818h-281l-62 -452z" />
    <glyph glyph-name="underscore" unicode="_" horiz-adv-x="1165" 
d="M-122 381l51 -189h1204l-51 189h-1204z" />
    <glyph glyph-name="grave" unicode="`" horiz-adv-x="634" 
d="M871 -1223l-259 86l-170 -454l296 -76z" />
    <glyph glyph-name="a" unicode="a" horiz-adv-x="1155" 
d="M300 -741c98 -223 273 -346 593 -343c196 2 331 57 347 228c4 47 -2 98 -17 153l-188 703h-264l37 -143c-96 93 -205 163 -386 165c-192 1 -319 -117 -263 -318c62 -221 258 -338 531 -349h239c15 -53 42 -140 7 -187c-22 -30 -61 -46 -121 -46c-137 0 -208 42 -251 137
h-264zM876 -446c-129 5 -280 -18 -359 43c-47 37 -104 125 -59 192c73 72 232 9 290 -38c60 -49 112 -110 128 -197z" />
    <glyph glyph-name="b" unicode="b" horiz-adv-x="1156" 
d="M661 24c-125 -1 -207 -56 -249 -138l-30 114h-262l392 -1466h277l-137 514c75 -70 161 -132 286 -132c208 0 310 127 310 334c0 334 -162 608 -396 730c-59 30 -122 44 -191 44zM735 -854c-134 85 -225 263 -234 470c-5 111 32 206 135 206c130 0 192 -96 243 -194
c60 -116 140 -382 17 -482c-44 -36 -110 -32 -161 0z" />
    <glyph glyph-name="c" unicode="c" horiz-adv-x="1150" 
d="M616 -184c133 0 210 -75 271 -181h287c-117 214 -296 387 -612 387c-229 0 -379 -108 -379 -320c0 -364 188 -645 465 -749c168 -63 404 -44 508 59c67 66 105 160 112 286h-290c-9 -107 -57 -176 -168 -176c-142 0 -213 98 -265 202c-51 101 -107 274 -62 404
c19 55 63 88 133 88z" />
    <glyph glyph-name="d" unicode="d" horiz-adv-x="1146" 
d="M788 -1084c110 -1 176 55 216 132l137 -514h277l-392 1466h-262l29 -114c-75 72 -178 138 -322 138c-204 0 -301 -137 -292 -340c14 -341 169 -607 415 -726c60 -29 125 -42 194 -42zM692 -203c136 -84 226 -264 235 -469c5 -111 -29 -206 -129 -206
c-133 0 -199 105 -251 205c-53 101 -105 274 -67 409c23 82 132 111 212 61z" />
    <glyph glyph-name="e" unicode="e" horiz-adv-x="1168" 
d="M548 -204c148 63 278 -36 341 -147h283c-86 162 -222 280 -404 344c-120 42 -289 34 -396 -9c-174 -70 -227 -279 -162 -507c71 -248 214 -437 440 -523c127 -48 300 -54 418 0c110 51 181 144 194 292c9 97 -20 225 -47 315h-745c-13 70 -15 143 18 186
c15 19 34 38 60 49zM971 -645c23 -156 -20 -233 -154 -233c-110 0 -180 62 -231 130c-20 27 -37 61 -51 103h436z" />
    <glyph glyph-name="f" unicode="f" horiz-adv-x="631" 
d="M987 -1249c-96 -23 -212 -42 -239 54l-38 133h190l-53 199h-190l-231 863h-274l231 -863h-147l53 -199h147c33 -140 83 -270 177 -344c119 -94 296 -99 468 -58z" />
    <glyph glyph-name="g" unicode="g" horiz-adv-x="1170" 
d="M793 -111c-62 58 -152 108 -266 111c-286 7 -382 -259 -304 -537c64 -227 191 -412 385 -506c148 -71 378 -47 436 82l27 -101h263l-239 893c-94 328 -286 568 -697 575h-140l55 -205c98 -1 201 7 270 -25c113 -52 175 -159 210 -287zM559 -686c-65 133 -165 485 68 479
c133 -4 200 -97 251 -195c58 -111 133 -364 10 -452c-89 -64 -213 5 -260 64c-24 30 -48 63 -69 104z" />
    <glyph glyph-name="h" unicode="h" horiz-adv-x="1139" 
d="M648 -951c75 -70 168 -133 304 -133c172 0 272 67 276 230c0 48 -8 100 -23 157l-186 697h-275l172 -642c33 -130 33 -230 -85 -230c-161 0 -236 120 -273 259l-164 613h-274l392 -1466h274z" />
    <glyph glyph-name="i" unicode="i" horiz-adv-x="514" 
d="M442 -1205l70 -261h274l-70 261h-274zM120 0l284 -1062h274l-284 1062h-274z" />
    <glyph glyph-name="j" unicode="j" horiz-adv-x="514" 
d="M442 -1203l70 -263h274l-70 263h-274zM-177 404l54 -199h142c62 -26 77 -118 96 -188l289 -1079h274l-290 1083c-59 205 -148 377 -402 383h-163z" />
    <glyph glyph-name="k" unicode="k" horiz-adv-x="1061" 
d="M587 -719c140 -95 281 -219 401 -343h328c-167 160 -331 291 -508 434c112 188 187 391 248 628h-319c-33 -179 -80 -326 -160 -464l-70 46l-112 418h-275l392 -1466h275z" />
    <glyph glyph-name="l" unicode="l" horiz-adv-x="516" 
d="M120 0l392 -1466h276l-392 1466h-276z" />
    <glyph glyph-name="m" unicode="m" horiz-adv-x="1670" 
d="M1461 -688c26 -84 24 -188 -70 -183c-155 8 -216 125 -252 259l-163 612h-276l182 -680c27 -109 34 -191 -67 -191c-160 0 -225 145 -259 274l-159 597h-277l284 -1062h259l-32 123c72 -75 173 -145 308 -145c134 0 220 50 244 167c80 -81 172 -164 322 -167
c161 -4 255 63 259 216c0 45 -8 96 -23 152l-191 716h-273z" />
    <glyph glyph-name="n" unicode="n" horiz-adv-x="1138" 
d="M961 -1084c167 -3 263 70 266 230c0 48 -8 100 -23 157l-186 697h-274l172 -642c32 -131 34 -230 -86 -230c-160 0 -234 122 -271 259l-164 613h-275l284 -1062h257l-35 134c81 -86 181 -153 335 -156z" />
    <glyph glyph-name="o" unicode="o" horiz-adv-x="1163" 
d="M236 -132c-111 -178 -24 -473 70 -622c114 -183 284 -330 566 -330c233 0 378 112 390 324c15 269 -115 495 -264 629c-102 92 -238 152 -422 153c-163 1 -279 -55 -340 -154zM552 -684c-76 133 -164 500 79 500c139 0 209 -96 267 -196c76 -133 160 -498 -81 -498
c-137 0 -208 94 -265 194z" />
    <glyph glyph-name="p" unicode="p" horiz-adv-x="1156" 
d="M642 22c-110 1 -177 -55 -216 -132l-139 517h-277l394 -1469h262l-29 114c74 -73 178 -138 321 -138c202 0 297 122 297 322c0 344 -176 617 -419 742c-60 31 -125 44 -194 44zM738 -858c-135 85 -226 262 -235 468c-5 111 29 206 129 206c133 0 198 -105 250 -205
c52 -101 107 -274 68 -409c-23 -81 -132 -110 -212 -60z" />
    <glyph glyph-name="q" unicode="q" horiz-adv-x="1156" 
d="M778 -1086c126 1 206 57 250 138l30 -114h262l-394 1469h-277l139 -517c-76 70 -160 132 -286 132c-210 0 -306 -139 -306 -350c0 -332 156 -600 392 -716c58 -28 121 -42 190 -42zM705 -208c134 -85 224 -264 233 -470c5 -112 -32 -206 -135 -206
c-130 0 -191 96 -242 194c-60 116 -140 382 -17 482c44 36 109 32 161 0z" />
    <glyph glyph-name="r" unicode="r" horiz-adv-x="769" 
d="M871 -780c-18 -36 -69 -63 -120 -63c-87 0 -157 96 -208 289l-148 554h-275l284 -1062h259l-39 144h3c57 -80 133 -158 249 -168c82 -7 123 30 157 80z" />
    <glyph glyph-name="s" unicode="s" horiz-adv-x="1076" 
d="M447 -351c2 103 44 167 150 167c104 0 184 -46 202 -124c20 -84 -76 -97 -143 -114c-133 -33 -237 -66 -310 -136c-88 -83 -40 -250 23 -330c91 -116 235 -198 440 -198c220 0 375 81 356 310l-279 37c23 -168 -267 -181 -302 -45c-20 78 47 93 110 108
c201 46 458 93 389 350c-60 223 -265 348 -540 348c-239 0 -388 -92 -381 -329z" />
    <glyph glyph-name="t" unicode="t" horiz-adv-x="708" 
d="M621 -13c-134 34 -342 47 -393 -48c-31 -58 -27 -131 -6 -208l159 -594h-120l53 -199h120l65 -242l319 -169l-110 411h167l-53 199h-167l-147 547c-13 48 -17 77 -14 87c9 24 29 16 64 13c20 -2 49 -6 88 -12z" />
    <glyph glyph-name="u" unicode="u" horiz-adv-x="1138" 
d="M796 -134c-82 85 -180 154 -335 156c-168 2 -263 -70 -267 -230c0 -48 8 -100 23 -157l187 -697h274l-172 642c-34 131 -36 230 85 230c160 0 235 -121 272 -259l164 -613h275l-284 1062h-257z" />
    <glyph glyph-name="v" unicode="v" horiz-adv-x="1031" 
d="M1310 -1062c-195 385 -415 740 -678 1062h-232c-72 -326 -121 -668 -111 -1062h277c-8 263 7 501 45 716c154 -216 299 -463 426 -716h273z" />
    <glyph glyph-name="w" unicode="w" horiz-adv-x="1468" 
d="M883 0c-24 -148 -33 -335 -24 -500c-76 177 -178 347 -281 500h-248c-54 -339 -80 -683 -41 -1062h276c-21 227 -29 451 -10 671c129 -209 234 -432 334 -671h271c-9 61 -16 122 -23 182s-12 119 -15 176c-5 105 -15 220 0 316c129 -204 255 -443 361 -674h264
c-166 384 -386 734 -617 1062h-247z" />
    <glyph glyph-name="x" unicode="x" horiz-adv-x="1057" 
d="M725 -719c115 -104 224 -212 311 -343h275c-119 210 -293 370 -470 524c93 156 194 308 211 538h-282c-23 -132 -86 -254 -144 -354c-120 107 -244 222 -340 354h-281c133 -214 319 -376 506 -536c-91 -149 -185 -296 -192 -526h277c12 139 69 245 129 343z" />
    <glyph glyph-name="y" unicode="y" horiz-adv-x="1030" 
d="M623 -352c155 -225 285 -456 413 -710h273c-221 437 -486 839 -777 1226c-98 130 -235 233 -427 240h-120l53 -199c56 -2 105 7 145 -15c88 -49 154 -133 208 -222c-68 -322 -97 -656 -102 -1030h281c-9 259 16 487 53 710z" />
    <glyph glyph-name="z" unicode="z" horiz-adv-x="1133" 
d="M80 0l46 -174l152 -166l168 -170c123 -122 259 -237 401 -348h-500l55 -204h906l-41 153l-243 191l-212 176c-122 106 -233 209 -330 329h628l-57 213h-973z" />
    <glyph glyph-name="braceleft" unicode="{" horiz-adv-x="802" 
d="M506 406c-178 2 -281 -64 -266 -245c10 -134 73 -303 90 -419c18 -122 -22 -166 -138 -162l59 -221c213 4 228 -156 277 -327c71 -244 134 -494 442 -498h144l-57 215c-66 0 -130 -4 -165 31c-68 68 -84 210 -118 314c-54 167 -113 305 -262 375c74 52 103 137 86 267
c-16 122 -88 284 -76 411c6 60 85 40 148 44l-57 215h-107z" />
    <glyph glyph-name="bar" unicode="|" horiz-adv-x="511" 
d="M51 406l501 -1872h255l-501 1872h-255z" />
    <glyph glyph-name="asciitilde" unicode="~" horiz-adv-x="1248" 
d="M960 -797c55 22 97 44 158 13c105 -53 204 -130 295 -206l-90 334c-123 105 -314 173 -503 99c-101 -39 -219 -136 -342 -70c-72 39 -187 133 -261 187l84 -313c153 -142 365 -183 560 -87l100 44z" />
    <glyph glyph-name="space" unicode=" " horiz-adv-x="598" 
 />
    <glyph glyph-name="braceright" unicode="}" horiz-adv-x="802" 
d="M616 -1466c169 -3 244 83 226 258c-14 131 -67 285 -87 400c-22 123 18 172 138 167l-59 221c-138 -3 -183 59 -224 162c-76 194 -107 482 -274 594c-85 57 -214 76 -364 70l56 -215c76 -1 139 6 172 -45c85 -132 110 -394 204 -526c47 -66 97 -112 170 -151
c-189 -131 -23 -443 -1 -641c9 -86 -75 -81 -158 -79l57 -215h144z" />
    </font>
</defs>
</svg>
